Skip to main content

The Alchemystics Live at Camp Kee-Wamee on 2013-09-14

Audio Preview

etree
The Alchemystics Live at Camp Kee-Wamee on 2013-09-14


Topics Wormfest 2013


*** This is a 24 bit recording, not intended for CD Burning ***

The Alchemystics
2013-09-14
Wormtown Music Festival
Camp KeeWanee
Greenfield, MA
Main Stage

DPA 4011 > V3 Digital + SBD > DR680 (24/48)
SDHC Card > Sound Forge Pro 10.0 (Mix, Normalize, Fades) > CD Wav (tracking) > TLH > Flac (level 8)
TS at front corner of FOH (ROC)/ORTF/approx. 8' high

Taped and Transferred by Brian V.

01. Track 01
02. Thinkin Bout You >
03. She Goes
04. Amazing
05. Good For You
06. Sparkle Pimp >
07. Track 07
08. Everyday People >
09. Spread Hope
10. Let We In >
11. Track 11
12. Nothing to Hide
13. Shine I
14. Elements
15. contest banter
16. Fire
17. Track 17


Collection TheAlchemystics
Band/Artist The Alchemystics
Venue Camp Kee-Wamee
Location Greenfield, MA

Source DPA 4011 > V3 Digital + SBD > DR680 (24/48)
Lineage SDHC Card > Sound Forge Pro 10.0 (Mix, Normalize, Fades) > CD Wav (tracking) > TLH > Flac (level 8)
Taped by Brian V.
Transferred by Brian V.

Notes

the band left the stage and came back for an encore. I edited out the banter between. fades were applied at the end and beginning.

Thanks to everyone that put Wormtown Music Festival together and for the tapers spot.
***Support Bands That Allow Taping/Trading***

shntool output
length expanded size cdr WAVE problems fmt ratio filename
6:05.933 105388844 B cxx -- ---xx flac 0.6394 alchemystics2013-09-14s1t01.flac
6:02.173 104305964 B cxx -- ---xx flac 0.6616 alchemystics2013-09-14s1t02.flac
7:13.347 124803884 B cxx -- ---xx flac 0.6475 alchemystics2013-09-14s1t03.flac
5:19.747 92087084 B cxx -- ---xx flac 0.6570 alchemystics2013-09-14s1t04.flac
5:32.147 95658284 B cxx -- ---xx flac 0.6552 alchemystics2013-09-14s1t05.flac
7:35.400 131155244 B cxx -- ---xx flac 0.6833 alchemystics2013-09-14s1t06.flac
5:31.307 95416364 B cxx -- ---xx flac 0.6655 alchemystics2013-09-14s1t07.flac
6:04.893 105089324 B cxx -- ---xx flac 0.6817 alchemystics2013-09-14s1t08.flac
6:14.947 107984684 B cxx -- ---xx flac 0.7154 alchemystics2013-09-14s1t09.flac
4:42.280 81296684 B cxx -- ---xx flac 0.6955 alchemystics2013-09-14s1t10.flac
3:24.613 58928684 B cxx -- ---xx flac 0.6546 alchemystics2013-09-14s1t11.flac
4:51.720 84015404 B cxx -- ---xx flac 0.6668 alchemystics2013-09-14s1t12.flac
4:41.547 81085484 B cxx -- ---xx flac 0.6869 alchemystics2013-09-14s1t13.flac
5:17.067 91315244 B cxx -- ---xx flac 0.6753 alchemystics2013-09-14s1t14.flac
0:52.227 15041324 B cxx -- ---xx flac 0.5748 alchemystics2013-09-14s1t15.flac
4:14.680 73347908 B cxx -- ---xx flac 0.6820 alchemystics2013-09-14s1t16.flac
5:31.136 95367212 B cxx -- ---xx flac 0.6982 alchemystics2013-09-14s1t17.flac
89:15.163 1542287620 B 0.6718 (17 files)

comment
Reviews

There are no reviews yet. Be the first one to write a review.
DOWNLOAD OPTIONS
Uploaded by
Brian V.
on 10/13/2013
Views
19
SIMILAR ITEMS (based on metadata)
eye
Title
Date Archived
Creator
The Alchemystics
by The Alchemystics
etree
eye 38
favorite 0
comment 0
Source: DPA 4011 > V3 Digital + SBD > DR680 (24/48)
The Alchemystics
by The Alchemystics
etree
eye 142
favorite 0
comment 0
Source: AKG 392> mini-me + SB > R-44
The Alchemystics
by The Alchemystics
etree
eye 70
favorite 0
comment 0
Source: OTC/@FOB/ROC; mics@~12ft > MBHO603/ka200n (ortf) > V3 (digital) >Tascam DR680 (48/24) + AKGc460b/ck63 (din) > Busman mod Tascam DR680
The Alchemystics
by The Alchemystics
etree
eye 33
favorite 0
comment 0
Source: source1: akg 482 (3' split) > Lunatec V2 > Edirol R-44 > WAV (24/48k), source2: sbd > Edirol R-44 > WAV (24/48k)
The Alchemystics
by The Alchemystics
etree
eye 28
favorite 1
comment 0
Source: akg391>R44 + sbd>R44 @ 2444
The Alchemystics
by The Alchemystics
etree
eye 738
favorite 0
comment 0
Source: Zoom H4 internal mics > WAV (44.1) > USB > Audacity (high pass filtered, amplified & cut) > WAV > xACT > flac8
The Alchemystics
by The Alchemystics
etree
eye 158
favorite 0
comment 0
Source: DPA 4011 > V3 + SBD > R44 (2448)
The Alchemystics
by The Alchemystics
etree
eye 40
favorite 0
comment 0
Source: DPA 4011 > V3 + SBD > R44 (2448)
The Alchemystics
by The Alchemystics
etree
eye 435
favorite 0
comment 0
Source: akg c480b/ck61 > oade bcm marantz pmd 671 > WAV (24/48k)
The Alchemystics
by The Alchemystics
etree
eye 237
favorite 0
comment 0
Source: source1: akg 481 > V2 > r-44 > WAV (24/48k), source2: sbd > r-44 > WAV (24/48k)